osu file format v14

[General]
AudioFilename: Shakugan no Shana II Ending 2.mp3
AudioLeadIn: 1500
PreviewTime: 44577
Countdown: 0
SampleSet: Soft
StackLeniency: 0.7
Mode: 0
LetterboxInBreaks: 0
WidescreenStoryboard: 0

[Editor]
DistanceSpacing: 0.8
BeatDivisor: 4
GridSize: 4
TimelineZoom: 1.2

[Metadata]
Title:Sociometry
TitleUnicode:Sociometry
Artist:KOTOKO
ArtistUnicode:KOTOKO
Creator:Inyuschan
Version:Gaia's Insane
Source:灼眼のシャナⅡ
Tags:Shakugan no Shana II Ending ED2 Burning-Eyed TV Size Gaia CSLMVenezuela CSLM p_a_n DakeDekaane
BeatmapID:742346
BeatmapSetID:335356

[Difficulty]
HPDrainRate:7
CircleSize:4
OverallDifficulty:8
ApproachRate:9
SliderMultiplier:1.9
SliderTickRate:1

[Events]
//Background and Video events
0,0,"BG.jpg",0,0
Video,0,"Sociometry.avi",0,0
//Break Periods
//Storyboard Layer 0 (Background)
//Storyboard Layer 1 (Fail)
//Storyboard Layer 2 (Pass)
//Storyboard Layer 3 (Foreground)
//Storyboard Sound Samples

[TimingPoints]
739,422.535211267606,4,2,0,50,1,0
739,-125,4,2,0,50,0,0
14260,-100,4,2,1,60,0,0
43098,-100,4,2,1,60,0,0
44471,-100,4,2,1,10,0,0
44682,-90.9090909090909,4,2,1,80,0,1
57781,-90.9090909090909,4,2,1,80,0,0
58203,-90.9090909090909,4,2,1,80,0,1
75105,-100,4,2,1,70,0,0
88415,-100,4,2,0,50,0,0

[Colours]
Combo1 : 154,168,104
Combo2 : 207,88,88
Combo3 : 124,142,216
Combo4 : 216,142,75
Combo5 : 125,162,215

[HitObjects]
112,72,739,6,0,B|61:81|28:130|37:184|70:215,2,152,2|2|2,0:0|0:0|0:0,0:0:0:0:
204,136,1795,1,0,0:0:0:0:
292,64,2006,2,0,L|380:60,1,76,2|0,0:0|0:0,0:0:0:0:
488,148,2429,6,0,B|467:207|463:266|472:323,2,152,2|2|2,0:0|0:0|0:0,0:0:0:0:
396,212,3485,1,0,0:0:0:0:
308,272,3696,2,0,B|270:282|232:260|220:225,1,76,2|0,0:0|0:0,0:0:0:0:
200,96,4119,6,0,B|248:94|290:127|300:175|285:215,2,152,2|2|2,0:0|0:0|0:0,0:0:0:0:
136,184,5175,1,0,0:0:0:0:
48,124,5386,2,0,B|40:84|48:44,1,76,2|0,0:0|0:0,0:0:0:0:
136,184,5809,6,0,L|132:284,1,76,2|0,0:0|0:0,0:0:0:0:
232,348,6231,2,0,L|236:248,1,76,2|0,0:0|0:0,0:0:0:0:
340,184,6654,2,0,L|336:284,1,76,2|0,0:0|0:0,0:0:0:0:
440,348,7077,2,0,L|444:248,1,76,2|0,0:0|0:0,0:0:0:0:
448,116,7499,6,0,B|405:159|339:162|293:129,2,152,2|2|2,0:0|0:0|0:0,0:0:0:0:
364,32,8555,2,0,B|331:16|295:16|264:28,1,76,0|2,0:0|0:0,0:0:0:0:
192,92,8978,1,0,0:0:0:0:
292,160,9189,6,0,B|300:268|300:268|264:320,1,152,2|2,0:0|0:0,0:0:0:0:
160,336,9823,1,0,0:0:0:0:
72,224,10034,2,0,B|83:165|143:129|200:148,1,152,2|2,0:0|0:0,0:0:0:0:
292,160,10668,1,0,0:0:0:0:
384,224,10879,6,0,B|440:232|489:188|488:132,1,152,2|2,0:0|0:0,0:0:0:0:
404,72,11513,1,0,0:0:0:0:
384,224,11724,2,0,B|420:292|384:344|384:344|348:332,1,152,2|2,0:0|0:0,0:0:0:0:
256,260,12358,1,0,0:0:0:0:
151,336,12569,6,0,B|128:344|128:344|92:292|128:224,1,152,2|2,0:0|0:0,0:0:0:0:
220,108,13203,1,0,0:0:0:0:
312,180,13415,2,0,L|352:188,2,38,2|0|0,0:0|0:0|0:0,0:0:0:0:
368,104,13731,2,0,L|408:96,2,38,0|2|0,0:0|0:0|0:0,0:0:0:0:
220,108,14154,1,0,0:0:0:0:
181,106,14260,5,2,0:0:0:0:
143,110,14365,1,0,0:0:0:0:
111,134,14471,1,0,0:0:0:0:
85,162,14577,1,0,0:0:0:0:
72,197,14682,1,0,0:0:0:0:
76,234,14788,1,0,0:0:0:0:
172,312,14999,5,0,0:0:0:0:
207,297,15105,1,0,0:0:0:0:
244,298,15210,1,0,0:0:0:0:
280,309,15316,1,0,0:0:0:0:
316,319,15422,1,0,0:0:0:0:
353,322,15527,1,0,0:0:0:0:
390,313,15633,1,0,0:0:0:0:
485,185,15844,1,0,0:0:0:0:
485,185,15950,6,0,B|454:164|416:167|389:188,1,95,4|0,0:0|0:0,0:0:0:0:
244,298,16372,2,0,B|272:317|307:316|333:299,1,95,8|0,0:0|0:0,0:0:0:0:
336,116,16795,2,0,B|307:98|272:99|246:117,1,95,2|0,0:0|0:0,0:0:0:0:
132,256,17217,1,8,0:0:0:0:
132,256,17429,1,0,0:0:0:0:
36,136,17640,6,0,L|48:36,1,95,2|0,0:0|0:0,0:0:0:0:
143,161,18062,2,0,L|131:255,1,95,8|0,0:0|0:0,0:0:0:0:
256,192,18485,2,0,L|268:92,1,95,2|0,0:0|0:0,0:0:0:0:
452,192,18908,2,0,B|417:234|360:245|313:224,1,142.5,8|0,0:0|0:0,0:0:0:0:
256,192,19330,6,0,B|220:181|184:182|151:192,1,95,2|0,0:0|0:0,0:0:0:0:
160,344,19753,2,0,B|196:355|232:354|265:344,1,95,8|0,0:0|0:0,0:0:0:0:
372,244,20175,1,2,0:0:0:0:
268,156,20386,1,0,0:0:0:0:
208,272,20598,1,8,0:0:0:0:
368,196,20809,1,0,0:0:0:0:
212,80,21020,6,0,L|224:208,1,95,2|0,0:0|0:0,0:0:0:0:
92,124,21443,2,0,L|100:29,1,95,8|0,0:0|0:0,0:0:0:0:
0,136,21865,1,2,0:0:0:0:
80,260,22077,1,0,0:0:0:0:
80,260,22182,1,0,0:0:0:0:
80,260,22288,2,0,B|112:273|145:273|175:263,1,95,8|0,0:0|0:0,0:0:0:0:
320,152,22710,6,0,B|352:140|385:142|413:154,1,95,2|0,0:0|0:0,0:0:0:0:
408,340,23133,2,0,B|376:351|342:349|313:337,1,95,8|0,0:0|0:0,0:0:0:0:
224,176,23555,1,2,0:0:0:0:
364,248,23767,1,0,0:0:0:0:
224,312,23978,1,8,0:0:0:0:
320,152,24189,1,0,0:0:0:0:
148,260,24400,6,0,B|88:268|35:220|35:154|70:114,1,190,2|8,0:0|0:0,0:0:0:0:
57,133,25034,1,0,0:0:0:0:
256,196,25246,2,0,L|244:308,1,95,2|0,0:0|0:0,0:0:0:0:
156,160,25668,2,0,L|166:65,1,95,8|0,0:0|0:0,0:0:0:0:
371,153,26091,5,2,0:0:0:0:
371,153,26196,1,0,0:0:0:0:
371,153,26302,2,0,L|363:249,1,95,0|8,0:0|0:0,0:0:0:0:
247,164,26724,1,0,0:0:0:0:
136,256,26936,2,0,B|96:264|58:253|28:232,1,95,2|0,0:0|0:0,0:0:0:0:
19,212,27253,1,0,0:0:0:0:
5,176,27358,1,8,0:0:0:0:
1,138,27464,1,0,0:0:0:0:
8,100,27569,1,0,0:0:0:0:
30,69,27675,1,0,0:0:0:0:
62,48,27781,5,2,0:0:0:0:
276,88,27992,1,8,0:0:0:0:
140,212,28203,2,0,B|129:178|130:142|140:111,1,95,8|0,0:0|0:0,0:0:0:0:
377,92,28626,5,8,0:0:0:0:
397,112,28731,1,0,0:0:0:0:
412,136,28837,1,8,0:0:0:0:
420,163,28943,1,0,0:0:0:0:
425,190,29048,1,8,0:0:0:0:
422,218,29154,1,0,0:0:0:0:
415,245,29260,1,8,0:0:0:0:
399,268,29365,1,0,0:0:0:0:
376,284,29471,6,0,B|301:273|227:276,1,142.5,4|0,0:0|0:0,0:0:0:0:
160,312,29893,2,0,B|125:327|86:314|64:282|64:249,1,95,8|0,0:0|0:0,0:0:0:0:
192,144,30316,2,0,B|227:129|266:142|288:174|288:207,1,95,2|0,0:0|0:0,0:0:0:0:
88,184,30739,1,8,0:0:0:0:
88,184,30950,1,0,0:0:0:0:
196,52,31161,6,0,L|360:56,1,142.5,2|0,0:0|0:0,0:0:0:0:
400,108,31584,1,8,0:0:0:0:
456,244,31795,1,0,0:0:0:0:
288,220,32006,2,0,B|264:187|258:148|268:112,1,95,2|0,0:0|0:0,0:0:0:0:
416,244,32429,2,0,B|419:277|410:309|392:333,1,95,8|0,0:0|0:0,0:0:0:0:
280,224,32851,6,0,B|180:208|180:208|136:228,1,142.5,2|0,0:0|0:0,0:0:0:0:
128,228,33274,2,0,B|144:191|135:151|109:125,1,95,8|0,0:0|0:0,0:0:0:0:
16,220,33696,2,0,B|-3:270|14:323|51:355,1,142.5,2|0,0:0|0:0,0:0:0:0:
124,348,34119,1,8,0:0:0:0:
244,248,34330,1,0,0:0:0:0:
376,336,34541,6,0,B|411:293|415:235|392:189,1,142.5,2|0,0:0|0:0,0:0:0:0:
344,148,34964,2,0,B|334:111|341:73|360:44,1,95,8|0,0:0|0:0,0:0:0:0:
236,104,35386,2,0,B|208:131|172:144|137:142,1,95,2|0,0:0|0:0,0:0:0:0:
248,212,35809,2,0,B|285:221|314:246|330:277,1,95,8|0,0:0|0:0,0:0:0:0:
180,356,36231,6,0,B|129:361|85:325|76:274|95:234,1,142.5,4|0,0:0|0:0,0:0:0:0:
154,216,36654,2,0,B|191:225|227:221|259:208,1,95,8|0,0:0|0:0,0:0:0:0:
452,156,37077,2,0,B|415:147|379:151|347:164,1,95,2|0,0:0|0:0,0:0:0:0:
428,308,37499,1,8,0:0:0:0:
428,308,37710,1,0,0:0:0:0:
480,144,37922,6,0,B|500:92|485:36|449:1,1,142.5,2|0,0:0|0:0,0:0:0:0:
380,52,38344,2,0,L|260:56,1,95,8|0,0:0|0:0,0:0:0:0:
128,112,38767,1,2,0:0:0:0:
128,112,38978,1,0,0:0:0:0:
280,192,39189,1,8,0:0:0:0:
280,192,39400,1,0,0:0:0:0:
156,324,39612,6,0,B|124:274|131:211|167:169,1,142.5,2|0,0:0|0:0,0:0:0:0:
128,112,40034,2,0,B|117:75|122:38|140:8,1,95,8|0,0:0|0:0,0:0:0:0:
292,88,40457,2,0,B|388:68|388:68|444:92,1,142.5,2|0,0:0|0:0,0:0:0:0:
472,148,40879,2,0,B|458:182|456:217|464:249,1,95,8|0,0:0|0:0,0:0:0:0:
280,328,41302,6,0,B|217:306|152:306|94:325,1,142.5,2|0,0:0|0:0,0:0:0:0:
76,268,41724,2,0,B|83:211|80:156,1,95,8|0,0:0|0:0,0:0:0:0:
208,64,42147,2,0,B|199:121|204:176,1,95,2|0,0:0|0:0,0:0:0:0:
308,288,42569,2,0,B|315:231|312:176,1,95,8|0,0:0|0:0,0:0:0:0:
440,76,42992,5,4,0:0:0:0:
256,192,43098,12,0,44471,0:0:0:0:
176,216,44682,5,4,0:0:0:0:
328,116,44893,1,0,0:0:0:0:
296,256,45105,1,8,0:0:0:0:
260,68,45316,1,0,0:0:0:0:
176,216,45527,2,0,B|119:239|59:225|17:189,1,156.750004783631,2|0,0:0|0:0,0:0:0:0:
12,124,45950,2,0,L|16:12,1,104.500003189087,8|0,0:0|0:0,0:0:0:0:
216,16,46372,6,0,B|255:49|266:102|247:148|213:175,1,156.750004783631,2|0,0:0|0:0,0:0:0:0:
176,216,46795,2,0,B|170:273|172:329,1,104.500003189087,8|0,0:0|0:0,0:0:0:0:
364,208,47217,2,0,B|343:172|303:155|265:160,1,104.500003189087,2|0,0:0|0:0,0:0:0:0:
368,312,47640,2,0,B|418:288|469:272,1,104.500003189087,8|0,0:0|0:0,0:0:0:0:
268,260,48062,6,0,L|272:372,1,104.500003189087,2|0,0:0|0:0,0:0:0:0:
352,224,48485,1,8,0:0:0:0:
184,224,48696,1,0,0:0:0:0:
352,224,48908,2,0,B|404:193|418:125|384:76,1,156.750004783631,2|0,0:0|0:0,0:0:0:0:
316,64,49330,1,8,0:0:0:0:
208,196,49541,1,0,0:0:0:0:
84,52,49753,6,0,B|40:51|3:80|-8:123|4:159,1,156.750004783631,2|0,0:0|0:0,0:0:0:0:
64,208,50175,2,0,B|119:189|176:188,1,104.500003189087,8|0,0:0|0:0,0:0:0:0:
336,300,50598,1,2,0:0:0:0:
336,300,50703,1,0,0:0:0:0:
336,300,50809,1,0,0:0:0:0:
428,160,51020,2,0,B|442:98|432:36,1,104.500003189087,8|0,0:0|0:0,0:0:0:0:
180,52,51443,6,0,B|176:90|189:126|212:152,1,104.500003189087,2|0,0:0|0:0,0:0:0:0:
415,196,51865,2,0,B|383:174|346:167|312:173,1,104.500003189087,8|0,0:0|0:0,0:0:0:0:
172,327,52288,2,0,B|207:311|231:282|243:250,1,104.500003189087,2|0,0:0|0:0,0:0:0:0:
48,220,52710,1,8,0:0:0:0:
48,220,52922,1,0,0:0:0:0:
188,340,53133,6,0,L|356:308,1,156.750004783631,2|0,0:0|0:0,0:0:0:0:
368,304,53555,2,0,B|338:271|337:223|359:189,1,104.500003189087,8|0,0:0|0:0,0:0:0:0:
428,52,53978,2,0,B|458:85|459:133|437:167,1,104.500003189087,2|0,0:0|0:0,0:0:0:0:
256,176,54400,2,0,B|226:143|225:95|247:61,1,104.500003189087,8|0,0:0|0:0,0:0:0:0:
280,196,54823,6,0,B|128:172|128:172|76:200,1,209.000006378174,2|8,0:0|0:0,0:0:0:0:
152,356,55457,2,0,B|168:319|162:278|140:248,1,104.500003189087,0|2,0:0|0:0,0:0:0:0:
12,144,55879,1,0,0:0:0:0:
72,308,56091,1,8,0:0:0:0:
224,232,56302,1,0,0:0:0:0:
12,248,56513,5,8,0:0:0:0:
152,356,56724,1,0,0:0:0:0:
184,168,56936,1,8,0:0:0:0:
64,316,57147,1,0,0:0:0:0:
254,280,57358,1,8,0:0:0:0:
295,275,57464,1,0,0:0:0:0:
335,282,57569,1,0,0:0:0:0:
372,300,57675,1,0,0:0:0:0:
403,328,57781,1,8,0:0:0:0:
348,168,57992,2,0,L|336:96,1,52.2500015945435,,,0:0:0:0:
256,192,58203,5,4,0:0:0:0:
312,352,58415,1,0,0:0:0:0:
432,228,58626,1,8,0:0:0:0:
254,280,58837,1,0,0:0:0:0:
452,220,59048,2,0,B|445:285|440:351,1,104.500003189087,2|0,0:0|0:0,0:0:0:0:
348,220,59471,1,8,0:0:0:0:
500,140,59682,1,0,0:0:0:0:
348,220,59893,6,0,B|299:253|237:246|197:209,1,156.750004783631,2|0,0:0|0:0,0:0:0:0:
172,144,60316,1,8,0:0:0:0:
288,56,60527,1,0,0:0:0:0:
372,200,60739,2,0,B|366:265|368:329,1,104.500003189087,2|0,0:0|0:0,0:0:0:0:
428,356,61055,1,0,0:0:0:0:
428,356,61161,1,8,0:0:0:0:
232,292,61372,1,0,0:0:0:0:
232,292,61478,1,0,0:0:0:0:
232,292,61584,5,2,0:0:0:0:
268,140,61795,1,0,0:0:0:0:
116,232,62006,1,8,0:0:0:0:
312,244,62217,1,0,0:0:0:0:
96,212,62429,2,0,B|66:159|79:96|119:57,1,156.750004783631,2|0,0:0|0:0,0:0:0:0:
184,96,62851,2,0,L|288:80,1,104.500003189087,8|0,0:0|0:0,0:0:0:0:
448,176,63274,6,0,L|293:199,1,156.750004783631,2|0,0:0|0:0,0:0:0:0:
288,216,63696,2,0,B|328:230|351:268|348:307,1,104.500003189087,8|0,0:0|0:0,0:0:0:0:
160,248,64119,2,0,B|152:207|161:168|180:136,1,104.500003189087,2|0,0:0|0:0,0:0:0:0:
240,104,64436,1,0,0:0:0:0:
240,104,64541,1,8,0:0:0:0:
84,192,64753,1,0,0:0:0:0:
260,256,64964,6,0,L|364:220,1,104.500003189087,2|0,0:0|0:0,0:0:0:0:
184,168,65386,2,0,L|163:276,1,104.500003189087,8|0,0:0|0:0,0:0:0:0:
296,140,65809,2,0,L|212:67,1,104.500003189087,2|0,0:0|0:0,0:0:0:0:
84,192,66231,1,8,0:0:0:0:
84,192,66443,1,0,0:0:0:0:
184,300,66654,6,0,B|234:337|298:338|347:309,1,156.750004783631,2|0,0:0|0:0,0:0:0:0:
404,288,67077,2,0,L|396:172,1,104.500003189087,8|0,0:0|0:0,0:0:0:0:
280,72,67499,2,0,L|287:176,1,104.500003189087,2|0,0:0|0:0,0:0:0:0:
184,300,67922,2,0,L|176:184,1,104.500003189087,8|0,0:0|0:0,0:0:0:0:
52,88,68344,6,0,B|30:134|31:185|48:228,1,104.500003189087,2|0,0:0|0:0,0:0:0:0:
128,312,68767,1,8,0:0:0:0:
256,216,68978,2,0,B|352:176|364:272|484:208,1,209.000006378174,2|0,0:0|0:0,0:0:0:0:
392,40,69612,2,0,B|368:74|371:118|395:147,1,104.500003189087,8|0,0:0|0:0,0:0:0:0:
472,336,70034,6,0,B|493:305|493:267|474:238,1,104.500003189087,2|0,0:0|0:0,0:0:0:0:
404,212,70351,1,0,0:0:0:0:
404,212,70457,1,8,0:0:0:0:
316,340,70668,1,0,0:0:0:0:
316,340,70774,1,0,0:0:0:0:
316,340,70879,1,2,0:0:0:0:
200,224,71091,1,0,0:0:0:0:
200,224,71196,1,0,0:0:0:0:
200,224,71302,1,8,0:0:0:0:
64,328,71513,1,0,0:0:0:0:
64,328,71619,1,0,0:0:0:0:
64,328,71724,6,0,B|27:292|23:238|47:197,1,104.500003189087,2|0,0:0|0:0,0:0:0:0:
132,116,72147,2,0,B|169:152|173:206|149:247,1,104.500003189087,8|0,0:0|0:0,0:0:0:0:
316,264,72569,2,0,B|279:228|275:174|299:133,1,104.500003189087,2|0,0:0|0:0,0:0:0:0:
384,52,72992,2,0,B|421:88|425:142|401:183,1,104.500003189087,8|0,0:0|0:0,0:0:0:0:
304,288,73415,5,2,0:0:0:0:
160,172,73626,1,8,0:0:0:0:
82,327,73837,2,0,L|190:303,1,104.500003189087,8|0,0:0|0:0,0:0:0:0:
221,285,74154,1,0,0:0:0:0:
262,279,74260,1,2,0:0:0:0:
304,288,74365,1,0,0:0:0:0:
343,302,74471,1,0,0:0:0:0:
383,311,74577,1,0,0:0:0:0:
424,306,74682,5,8,0:0:0:0:
455,278,74788,1,0,0:0:0:0:
474,241,74893,1,0,0:0:0:0:
478,199,74999,1,0,0:0:0:0:
460,156,75105,6,0,B|430:143|395:151|374:175|368:203,1,95,4|0,0:0|0:0,0:0:0:0:
259,327,75527,2,0,B|290:341|325:329|343:303,1,95,8|0,0:0|0:0,0:0:0:0:
288,132,75950,2,0,B|258:119|223:127|202:151|196:179,1,95,2|0,0:0|0:0,0:0:0:0:
144,320,76372,1,8,0:0:0:0:
144,320,76478,1,0,0:0:0:0:
144,320,76584,1,0,0:0:0:0:
184,168,76795,6,0,L|180:56,1,95,2|0,0:0|0:0,0:0:0:0:
72,160,77217,2,0,L|75:254,1,95,8|0,0:0|0:0,0:0:0:0:
291,226,77640,2,0,L|288:132,1,95,2|0,0:0|0:0,0:0:0:0:
464,152,78062,1,8,0:0:0:0:
456,188,78168,1,0,0:0:0:0:
448,224,78274,1,0,0:0:0:0:
440,260,78379,1,0,0:0:0:0:
420,292,78485,6,0,B|376:311|329:313|287:300,1,95,2|0,0:0|0:0,0:0:0:0:
200,180,78908,2,0,B|244:161|291:159|333:172,1,95,8|0,0:0|0:0,0:0:0:0:
164,312,79330,2,0,B|120:331|73:333|31:320,1,95,2|0,0:0|0:0,0:0:0:0:
100,184,79753,1,8,0:0:0:0:
256,288,79964,1,0,0:0:0:0:
72,172,80175,6,0,L|80:56,1,95,2|0,0:0|0:0,0:0:0:0:
176,232,80598,2,0,L|116:312,1,95,8|0,0:0|0:0,0:0:0:0:
188,112,81020,2,0,L|276:156,1,95,2|0,0:0|0:0,0:0:0:0:
398,301,81443,1,8,0:0:0:0:
431,284,81548,1,0,0:0:0:0:
454,254,81654,1,0,0:0:0:0:
469,218,81760,1,0,0:0:0:0:
461,177,81865,6,0,B|450:120|458:63,1,95,2|0,0:0|0:0,0:0:0:0:
336,192,82288,2,0,B|306:223|263:233|224:224,1,95,8|0,0:0|0:0,0:0:0:0:
92,180,82710,2,0,B|124:236|132:300,1,95,2|0,0:0|0:0,0:0:0:0:
184,320,83027,1,0,0:0:0:0:
184,320,83133,2,0,B|288:304|288:304|356:332,1,142.5,8|0,0:0|0:0,0:0:0:0:
398,301,83555,6,0,B|434:296|460:267|464:233,1,95,2|0,0:0|0:0,0:0:0:0:
292,184,83978,2,0,L|308:288,1,95,8|0,0:0|0:0,0:0:0:0:
188,148,84400,2,0,L|204:252,1,95,2|0,0:0|0:0,0:0:0:0:
80,112,84823,2,0,L|96:216,1,95,8|0,0:0|0:0,0:0:0:0:
120,332,85246,5,2,0:0:0:0:
120,332,85351,1,0,0:0:0:0:
120,332,85457,2,0,B|156:308|198:303|236:312,1,95,0|8,0:0|0:0,0:0:0:0:
368,340,85879,1,0,0:0:0:0:
452,216,86091,1,2,0:0:0:0:
472,184,86196,1,0,0:0:0:0:
480,146,86302,1,0,0:0:0:0:
483,108,86408,1,0,0:0:0:0:
465,74,86513,1,8,0:0:0:0:
438,47,86619,1,0,0:0:0:0:
401,36,86724,1,0,0:0:0:0:
364,47,86830,1,0,0:0:0:0:
336,76,86936,5,2,0:0:0:0:
256,192,87147,1,8,0:0:0:0:
256,192,87253,1,0,0:0:0:0:
256,192,87358,1,8,0:0:0:0:
176,308,87569,1,0,0:0:0:0:
143,327,87675,1,0,0:0:0:0:
105,332,87781,1,8,0:0:0:0:
69,318,87886,1,0,0:0:0:0:
47,286,87992,1,0,0:0:0:0:
34,249,88098,1,0,0:0:0:0:
45,213,88203,6,0,B|63:203|83:199|102:199,1,47.5,8|0,0:0|0:0,0:0:0:0:
256,192,88415,2,0,B|238:202|218:206|199:206,1,47.5,0|2,0:0|0:0,0:0:0:0:
